Pirates Of The Carribean 2017 Torrent Download Torrent

  1. Pirates Of The Caribbean 2017 Torrent Download Torrent Download
  2. Pirates Of The Caribbean 2017 Torrent Download Torrent English
  3. Pirates Of The Caribbean 2017 Torrent Download Torrent Free

Download Pirates Of The Caribbean At World S End Torrent Game For Pc from apunkatorrents.net. The legend of jack sparrow (2006) pc repack by devil123. Set sail on the vast blue waters of the caribbean in search of adventure, fortune, and fame in the world of the infamous jack sparrow and the evil davy jones. Pirates Of The Caribbean: Salazars Revenge free torrent download. 29 Seeds 26 Peers. Pirates of the Caribbean: Salazar revenge When dangerous Captain Salazar and his crew escape spookpirate from the Devil Triangle, we are determined to remove any pirates in the sea – including Captain Jack Sparrow. To escape and save himself from. Pirates Of The Caribbean 5 Dual Audio 480p Download Torrent Free. Filmyzilla 2016 2017 filmyzilla 2019 2018 hollywood hindi dubbed movies also available in bluray hdrip webrip multiple quality. Cs3 free. download full version.

1.0 GB

Captain Jack Sparrow finds the winds of ill-fortune blowing even more strongly when deadly ghost pirates led by his old nemesis, the terrifying Captain Salazar, escape from the Devil's Triangle, determined to kill every pirate at sea...including him. Captain Jack's only hope of survival lies in seeking out the legendary Trident of Poseidon, a powerful artifact that bestows upon its possessor total control over the seas.

Fearless and cowardly, witty and ridiculous, in love and lonely - it's all Jack Sparrow, the famous handsome captain who has plowed the boundless sea on his beloved Black Pearl ship. His mysterious adventures became legends: Pirates of the Caribbean: Dead Men Tell No Tales download torrent the man fought in the sea Kraken, many times was captured by the British army, dared challenge the immortal sea devil, freed the goddess Pirates of the Caribbean: Dead Men Tell No Tales hd torrent Calypso and even traveled to the fountain that gives eternal youth, along with the terrible Black Beard.

A charming pirate with her eyes down, an eccentric suit and dreadlocks broke the hearts of women every time, resting on the beach. Pirates of the Caribbean: Dead Men Tell No Tales torrent watch now He has many friends, but there are enemies. Rival captains have repeatedly treacherously taken the 'Black Pearl', but Jack managed to return it.

Now Jack Sparrow is waiting for a new adventure. Pirates of the Caribbean: Dead Men Tell No Tales 2017 torrents online An old friend, Captain Salazar, believed to be dead, returned. The former corsair hated all the pirate race, and now seeks to cut out the sea robbers. Jack's situation is 'embarrassing', because it threatens a sudden death. Stop the furious friend will help an ancient trident, coupled with wit, audacity and cunning ...

IMDb:- http://www.imdb.com/title/tt1790809
Movie Title: Pirates of the Caribbean: Dead Men Tell No Tales (2017)
Director: Joachim Rønning, Espen Sandberg
Stars: Johnny Depp, Geoffrey Rush, Javier Bardem
Release Date: 26 May 2017 (UK)
Genres: Action, Adventure, Fantasy
Format: MatRoska (Mkv)
File Size: 1GB
Resolution: 1280x532
Runtime: 02:09:06
Language: English
Subtitles: English [Softcoded] - Muxed
Encoder: MkvCage (MC) Team
Source: 1080p.WEB-DL.DD5.1.H264-FGT
Video/Audio(MediaInfo) :- http://pastehere.xyz/35758/


Pirates Of The Caribbean 2017 Torrent Download Torrent Download


Pirates Of The Caribbean 2017 Torrent Download Torrent English

Bit rate : 3 331 kb/s
Width : 1 920 pixels
Height : 800 pixels
Display aspect ratio : 2.40:1
Frame rate mode : Constant
Frame rate : 23.976 (24000/1001) FPS
Stream size : 3.92 GiB (80%)
Title : ~Ranvijay~
Language : English
Audio #1
Format : AC-3
Bit rate mode : Constant
Bit rate : 384 kb/s
Channel(s) : 6 channels
Channel positions : Front: L C R, Side: L R, LFE
Title : ~Ranvijay~
Language : Hindi
Audio #2
Format : AC-3
Bit rate mode : Constant
Bit rate : 448 kb/s
Channel(s) : 6 channels
Channel positions : Front: L C R, Side: L R, LFE
Title : ~Ranvijay~
Language : English
Text #1
Format : UTF-8
Title : ~Ranvijay~
Language : English
Text #2
Format : VobSub
Muxing mode : zlib
Stream size : 6.83 MiB (0%)
Title : ~Ranvijay~
Language : English
Pirates Of The Caribbean 2017 Torrent Download Torrent Free
Advertisement